» » Двуличие

Двуличие

Описание фильма "Двуличие"

Ведущий вполне идилличную жизнь, молодой фотограф Матиас всю жизнь считал себя сиротой, а тут вдруг оказывается, что его мать умерла лишь недавно Мало того, у него есть брат-близнец Тома!Матиас пытается восстановить утраченные годы и наладить связь с братом, однако, чем дальше он погружается в прошлое, тем более туманным и мрачным становится будущее

Скачать Двуличие через торрент

Вниманию правообладателей! Просьба претензии к контенту отправлять на почтовый ящик [email protected]
Сиды Качество Перевод Размер Видео Аудио
Скачать Загрузка... DVDRip Профессиональный многоголосый 1,57 Гб MPEG-4 AVC, 1823 Кбит/с, 1024x432, 25 кадр/с • №1: Русский (AC3, 2 ch, 192 Кбит/с) | Профессиональный (многоголосый закадровый) • №2: Русский (AC3, 2 ch, 192 Кбит/с) | Оригинал (французский) Скриншоты MediaInfoОбщееУникальный идентификатор : 183985698573254199954700962409165318554 (0x8A6A5B4B96651E79839E4A9C463B699A)Полное имя : D:Dvulichie.2005.x264.DVDRip.(AVC).Marvel.mkvФормат : MatroskaВерсия формата : Version 4 / Version 2Размер файла : 1,46 ГбайтПродолжительность : 1 ч. 34 м.Общий поток : 2208 Кбит/секНазвание фильма : Trouble (2005) -=Marvel=-Дата кодирования : UTC 2015-01-01 11:45:12Программа кодирования : mkvmerge v7.3.0 ('Nouages') 32bit built on Oct 22 2014 18:44:01Библиотека кодирования : libebml v1.3.0 + libmatroska v1.4.1DURATION : 01:34:38.848000000NUMBER_OF_FRAMES : 177464NUMBER_OF_BYTES : 136292352_STATISTICS_WRITING_APP : mkvmerge v7.3.0 ('Nouages') 32bit built on Oct 22 2014 18:44:01_STATISTICS_WRITING_DATE_UTC : 2015-01-01 11:45:12_STATISTICS_TAGS : BPS DURATION NUMBER_OF_FRAMES NUMBER_OF_BYTES ВидеоИдентификатор : 1Формат : AVCФормат/Информация : Advanced Video CodecПрофиль формата : [email protected]Параметр CABAC формата : ДаПараметр ReFrames формата : 8 кадровИдентификатор кодека : V_MPEG4/ISO/AVCПродолжительность : 1 ч. 34 м.Битрейт : 1823 Кбит/секШирина : 1024 пикселяВысота : 432 пикселяСоотношение сторон : 2,40:1Частота кадров : 25,000 кадров/секЦветовое пространство : YUVСубдискретизация насыщенности : 4:2:0Битовая глубина : 8 битТип развёртки : ПрогрессивнаяБит/(Пиксели*Кадры) : 0.165Размер потока : 1,18 Гбайт (81%)Заголовок : Trouble (2005)Библиотека кодирования : x264 core 130 r2273 b3065e6Настройки программы : cabac=1 / ref=8 / deblock=1:-3:-3 / analyse=0x3:0x133 / me=umh / subme=11 / psy=1 / psy_rd=1.00:0.00 / mixed_ref=1 / me_range=48 / chroma_me=1 / trellis=2 / 8x8dct=1 / cqm=0 / deadzone=21,11 / fast_pskip=0 / chroma_qp_offset=-2 / threads=1 / lookahead_threads=1 / sliced_threads=0 / nr=0 / decimate=1 / interlaced=0 / bluray_compat=0 / constrained_intra=0 / bframes=8 / b_pyramid=2 / b_adapt=2 / b_bias=0 / direct=3 / weightb=1 / open_gop=0 / weightp=2 / keyint=250 / keyint_min=22 / scenecut=40 / intra_refresh=0 / rc=2pass / mbtree=0 / bitrate=1823 / ratetol=1.0 / qcomp=0.60 / qpmin=10 / qpmax=51 / qpstep=4 / cplxblur=20.0 / qblur=0.5 / ip_ratio=1.40 / pb_ratio=1.30 / aq=2:1.00Язык : FrenchDefault : НетForced : ДаDURATION : 01:34:38.880000000NUMBER_OF_FRAMES : 141972NUMBER_OF_BYTES : 1293401588_STATISTICS_WRITING_APP : mkvmerge v7.3.0 ('Nouages') 32bit built on Oct 22 2014 18:44:01_STATISTICS_WRITING_DATE_UTC : 2015-01-01 11:45:12_STATISTICS_TAGS : BPS DURATION NUMBER_OF_FRAMES NUMBER_OF_BYTES Аудио #1Идентификатор : 2Формат : AC-3Формат/Информация : Audio Coding 3Расширение режима : CM (complete main)Параметр Endianness формата : BigИдентификатор кодека : A_AC3Продолжительность : 1 ч. 34 м.Вид битрейта : ПостоянныйБитрейт : 192 Кбит/секКаналы : 2 каналаРасположение каналов : Front: L RЧастота : 48,0 КГцБитовая глубина : 16 битМетод сжатия : С потерямиРазмер потока : 130 Мбайт (9%)Заголовок : MVOЯзык : RussianDefault : НетForced : Нет Аудио #2Идентификатор : 3Формат : AC-3Формат/Информация : Audio Coding 3Расширение режима : CM (complete main)Параметр Endianness формата : BigИдентификатор кодека : A_AC3Продолжительность : 1 ч. 34 м.Вид битрейта : ПостоянныйБитрейт : 192 Кбит/секКаналы : 2 каналаРасположение каналов : Front: L RЧастота : 48,0 КГцБитовая глубина : 16 битМетод сжатия : С потерямиРазмер потока : 130 Мбайт (9%)Заголовок : FrenchЯзык : FrenchDefault : НетForced : Нет

У нас вы можете легко скачать Двуличие через торрент бесплатно в хорошем качестве, оставляйте комментарии и делитесь впечатлениями!


А вот тут ещё интересные фильмы, которые вы может быть не смотрели:



Добавить комментарий

Ваше имя

Комментарий

Все рекомендуемые нами программы доступны на странице Скачать. На сайте Кино как То всегда все новые фильмы, доступные к скачиванию через торрент.

Киноторг Контакты:
Адрес: Гаражный пр. 13 105275 Москва,