» » Стальные руки

Стальные руки

Стальные руки (1986) cкачать торрент и смотреть бесплатно

Оригинальное название: Vendetta dal futuro
Производство: Италия
Режиссер: Серджо Мартино
В ролях: Дэниэл Грин, Джанет Агрен, Клаудио Кассинелли, Джордж Истмен, Роберто Бизакко, Пэт Монти, Андреа Коппола, Дональд О’Брайэн, Фрэнк Уолден, Дарвин Суолв, Эми Верба, Джон Сэксон
Жанр: Фантастика, Боевики
Мировая премьера: 3 января 1986
Возраст: 16+
Продолжительность: 94 мин. / 01:34
Рейтинги:
5.410(2003)
5.94(279)


Описание фильма "Стальные руки"

В недалеком будущем Земля окажется на грани экологической катастрофы, а могущественные транснациональные корпорации продолжают загрязнять окружающую среду. Против них восстает движение «зеленых» во главе с Артуром Мозели. Тогда глава одной из корпораций, Френсис Тёрнер, создает киборга из попавшего в аварию человека по имени Пако. Его задача  убить Артура. Но в момент убийства человеческая сущность Пако берет вверх над программой, и он оставляет Мозели в живых. Скрываясь от полиции и людей Тёрнера, Пако едет в Аризону, где останавливается в маленькой гостинице, очаровательная владелица которой предоставляет ему убежище. Но бандиты и полиция уже вышли на след беглеца

Скачать Стальные руки через торрент

Вниманию правообладателей! Просьба претензии к контенту отправлять на почтовый ящик [email protected]
Сиды Качество Перевод Размер Видео Аудио
Скачать Загрузка... BDRip1080 Любительский (одноголосый закадровый) 9,52 Гб MPEG-4 AVC, 1808x1080p (16:9), 23.976 fps, 12700 kbps английский / FLAC / 2.0 / 48 kHz / ~734 kbps / 24 bits || ENG
Скачать Загрузка... DVDRip Профессиональный (двухголосый) НТВ+ 782,78 Мб MPEG-4 AVC, 712x416, ~ 1119 Кбит/с AAC-LC, 2 ch, ~72 Кбит/сMIОбщее Уникальный идентификатор : 195618882996732471442108648419267537553 (0x932AD391E7F0373B8C4CAD387AE16A91) Полное имя : D:MOVIESVendetta dal futuro.1986.ExKinoRay.mkv Формат : Matroska Версия формата : Version 2 Размер файла : 747 Мбайт Продолжительность : 1 ч. 27 м. Общий поток : 1193 Кбит/сек Дата кодирования : UTC 2017-09-25 17:52:24 Программа кодирования : mkvmerge v15.0.0 ('Duel with the Devil') 64-bit Библиотека кодирования : libebml v1.3.5 + libmatroska v1.4.5 Видео Идентификатор : 1 Формат : AVC Формат/Информация : Advanced Video Codec Профиль формата : [email protected] Параметр CABAC формата : Да Параметр RefFrames формата : 11 кадров Идентификатор кодека : V_MPEG4/ISO/AVC Продолжительность : 1 ч. 27 м. Битрейт : 1119 Кбит/сек Ширина : 712 пикселей Высота : 416 пикселей Соотношение сторон : 1,712 Режим частоты кадров : Постоянный Частота кадров : 25,000 кадров/сек Цветовое пространство : YUV Субдискретизация насыщенности : 4:2:0 Битовая глубина : 8 бит Тип развёртки : Прогрессивная Бит/(Пиксели*Кадры) : 0.151 Размер потока : 700 Мбайт (94%) Библиотека кодирования : x264 core 152 r2851kMod ba24899 Настройки программы : cabac=1 / ref=11 / deblock=1:-3:-3 / analyse=0x3:0x113 / me=umh / subme=11 / psy=1 / fade_compensate=0.00 / psy_rd=1.00:0.20 / mixed_ref=1 / me_range=32 / chroma_me=1 / trellis=2 / 8x8dct=1 / cqm=0 / deadzone=21,11 / fast_pskip=0 / chroma_qp_offset=-3 / threads=6 / lookahead_threads=1 / sliced_threads=0 / nr=0 / decimate=0 / interlaced=0 / bluray_compat=0 / constrained_intra=0 / bframes=11 / b_pyramid=2 / b_adapt=2 / b_bias=0 / direct=3 / weightb=1 / open_gop=0 / weightp=2 / keyint=250 / keyint_min=24 / scenecut=40 / intra_refresh=0 / rc_lookahead=40 / rc=2pass / mbtree=1 / bitrate=1119 / ratetol=1.0 / qcomp=0.60 / qpmin=0 / qpmax=69 / qpstep=4 / cplxblur=20.0 / qblur=0.5 / vbv_maxrate=50000 / vbv_bufsize=62500 / nal_hrd=none / filler=0 / ip_ratio=1.40 / aq=3:1.00 Default : Да Forced : Нет Аудио Идентификатор : 2 Формат : AAC Формат/Информация : Advanced Audio Codec Профиль формата : LC Идентификатор кодека : A_AAC Продолжительность : 1 ч. 27 м. Битрейт : 72,0 Кбит/сек Каналы : 2 канала Расположение каналов : Front: L R Частота : 48,0 КГц Частота кадров : 46,875 кадров/сек (1024 SPF) Метод сжатия : С потерями Задержка видео : 9 мс. Размер потока : 45,1 Мбайт (6%) Default : Да Forced : Нет Скриншоты
Скачать Загрузка... DVDRip Профессиональный (двухголосый, закадровый) НТВ+ + Авторский (одноголосый, закадровый) Сергей Визгунов + Авторский (одноголосый, закадровый) Александр Марченко + Оригинал 3,10 Гб 768х456 (1.684), 3830 Kbps, 25.000 fps, 0.437 bit/pixel 48.0 kHz, AC3 Dolby Digital, 2/0 (L,R) ch, 192 kbps [Оригинал, Английский]

У нас вы можете легко скачать Стальные руки через торрент бесплатно в хорошем качестве, оставляйте комментарии и делитесь впечатлениями!


А вот тут ещё интересные фильмы, которые вы может быть не смотрели:



Добавить комментарий

Ваше имя

Комментарий

Все рекомендуемые нами программы доступны на странице Скачать. На сайте Кино как То всегда все новые фильмы, доступные к скачиванию через торрент.

Киноторг Контакты:
Адрес: Гаражный пр. 13 105275 Москва,