» » Не называй меня малышкой

Не называй меня малышкой

Не называй меня малышкой (1996) cкачать торрент и смотреть бесплатно

Оригинальное название: Barb Wire
Производство: США
Режиссер: Дэвид Хоган
В ролях: Памела Андерсон, Темуэра Моррисон, Виктория Роуэлл, Джек Ноузуорти, Ксандер Беркли, Удо Кир, Стив Рейлсбэк, Андре Рози Браун, Николас Уорт, Клинт Ховард, Амир Абулела, Адриана Александр, Дэвид Эндриол, Ванесса Ли Эшер, Рон Балики, Дженнифер Банко, Кендес Кита, Тони Билл, Алекс Букстон, Джил Боргос, Марк Коллвер, Тина Коте, Винни Керто, Шелли Десаи, Майлз Дагал, Кен Форсгрен, Даррел Хит, Нил Хант, Дайана Ли Иносанто, Генри Кинги, Тиффани Лоуренс, Том ’Тайни’ Листер мл., Маршалл Манеш, Джон Пэкстон, Пи Ви Пьемонте, Мэри Анна Рейс, Джеффри Дин Розенталь, Лорен Рубин, Майкл Руссо, Джо Сагал, Дайан Шэй, Харви Шилд, Лу Саймон, Рене Стал, Нилс Аллен Стюарт, Тео, Патти Типпо, Доминик Ванденберг, Аи Ван, Дайан Уоршей, Джек Райт, Сальватор Ксереб
Жанр: Фантастика, Боевики
Мировая премьера: 3 мая 1996
Возраст: 18+
Продолжительность: 98 мин. / 01:38
Рейтинги:
3.310(24137)
4.733(2177)


Описание фильма "Не называй меня малышкой"

Америка охвачена второй гражданской войной. Единственным нейтральным городом остается Стил Харбор. А самое популярное место в Стил Харборе  гриль-бар «Дубовая голова». Имя его владелицы, красавицы по кличке «колючая проволока» окружено легендами. Когда эмоции в ее баре перехлестывают через край, она лично исполняет обязанности вышибалы, а вот справиться с ней не удавалось еще никому. Единственный человек о котором она заботилась  ее слепой младший брат Чарли.Но вот в городе появляется Аксель Худ. Он должен переправить в Канаду доктора Тайру Армстронг, чтобы предупредить Комиссию по перемирию о страшном биологическом оружии, которое может повлечь за собой глобальную катастрофу. Акселю нужна помощь, и он знает, что оказать ее может лишь «Колючая проволока».

Скачать Не называй меня малышкой через торрент

Вниманию правообладателей! Просьба претензии к контенту отправлять на почтовый ящик [email protected]
Сиды Качество Перевод Размер Видео Аудио
Скачать Загрузка... BDRemux Профессиональный многоголосый, авторский 27,01 Гб 30413 Кбит/с, 1920x1080, 23.976 кадр/с Russian / Dolby AC3 48000Hz 6ch 384 Kbps -
Скачать Загрузка... BDRip1080 Многоголосый 10,50 Гб 1920x1036 (1,85:1), 13 Мбит/сек, 0.272 бит/(Пиксели*Кадры), 23,976 (24000/1001) кадра/сек, HEVC (Main [email protected]@High) 10 бит Аудио1: AC3, 6 ch, 640 Kbps - Русский, Многоголосый (R5)Аудио2: AC3, 6 ch, 640 Kbps - Английский, Оригинал
Скачать Загрузка... BDRip1080 9,25 Гб MPEG-4 AVC Video / 8352 kbps / 1280x692 / 23,976 fps / 1.85:1 / High Profile 4.1 English / DTS / 5.1 / 48 kHz / 1536 kbps / 24-bit | Original
Скачать Загрузка... WEB-DL Профессиональный (многоголосый, закадровый) Blu-ray EUR 782,27 Мб MPEG-4 AVC, 752x408, ~ 983 Кбит/с AAC-LC, 2 ch, ~ 76 Кбит/сMIОбщее Уникальный идентификатор : 180932506771142875001824640578617551770 (0x881E555134CCCA72A388CC28CE232B9A) Полное имя : D:MOVIESBarb.Wire.1996.ExKinoRay.mkv Формат : Matroska Версия формата : Version 4 / Version 2 Размер файла : 746 Мбайт Продолжительность : 1 ч. 38 м. Общий поток : 1061 Кбит/сек Дата кодирования : UTC 2017-10-25 13:19:00 Программа кодирования : mkvmerge v15.0.0 ('Duel with the Devil') 64-bit Библиотека кодирования : libebml v1.3.5 + libmatroska v1.4.5 Видео Идентификатор : 1 Формат : AVC Формат/Информация : Advanced Video Codec Профиль формата : [email protected] Параметр CABAC формата : Да Параметр RefFrames формата : 10 кадров Идентификатор кодека : V_MPEG4/ISO/AVC Продолжительность : 1 ч. 38 м. Битрейт : 983 Кбит/сек Ширина : 752 пикселя Высота : 408 пикселей Соотношение сторон : 1,85:1 Режим частоты кадров : Постоянный Частота кадров : 23,976 (24000/1001) кадра/сек Цветовое пространство : YUV Субдискретизация насыщенности : 4:2:0 Битовая глубина : 8 бит Тип развёртки : Прогрессивная Бит/(Пиксели*Кадры) : 0.134 Размер потока : 691 Мбайт (93%) Библиотека кодирования : x264 core 152 r2851kMod ba24899 Настройки программы : cabac=1 / ref=10 / deblock=1:-3:-2 / analyse=0x3:0x133 / me=umh / subme=11 / psy=1 / fade_compensate=0.00 / psy_rd=1.00:0.05 / mixed_ref=1 / me_range=32 / chroma_me=1 / trellis=2 / 8x8dct=1 / cqm=0 / deadzone=21,11 / fast_pskip=0 / chroma_qp_offset=-3 / threads=6 / lookahead_threads=1 / sliced_threads=0 / nr=0 / decimate=0 / interlaced=0 / bluray_compat=0 / constrained_intra=0 / bframes=10 / b_pyramid=2 / b_adapt=2 / b_bias=0 / direct=3 / weightb=1 / open_gop=0 / weightp=2 / keyint=240 / keyint_min=23 / scenecut=40 / intra_refresh=0 / rc_lookahead=40 / rc=2pass / mbtree=1 / bitrate=983 / ratetol=1.0 / qcomp=0.60 / qpmin=0 / qpmax=69 / qpstep=4 / cplxblur=20.0 / qblur=0.5 / vbv_maxrate=50000 / vbv_bufsize=62500 / nal_hrd=none / filler=0 / ip_ratio=1.40 / aq=3:1.00 Default : Да Forced : Нет Аудио Идентификатор : 2 Формат : AAC Формат/Информация : Advanced Audio Codec Профиль формата : LC Идентификатор кодека : A_AAC Продолжительность : 1 ч. 38 м. Битрейт : 76,0 Кбит/сек Каналы : 2 канала Расположение каналов : Front: L R Частота : 48,0 КГц Частота кадров : 46,875 кадров/сек (1024 SPF) Метод сжатия : С потерями Задержка видео : 9 мс. Размер потока : 53,5 Мбайт (7%) Язык : Russian Default : Да Forced : Нет Меню 00:00:00.000 : en:Opening Credits 00:03:55.026 : en:Barb Wire to the Rescue 00:08:11.699 : en:Welcome to Steel Harbor 00:18:12.424 : en:Night on the Town 00:27:56.758 : en:Hammerhead Bar & Grille 00:34:07.336 : en:Axel's Only Hope 00:44:15.944 : en:The Resistance 00:48:44.379 : en:Let's Make a Deal 00:53:31.666 : en:Warrant for Barb's Arrest 00:55:33.538 : en:Police Raid 01:04:49.844 : en:Barb's Biggest Mistake 01:12:59.500 : en:The Exchange 01:19:29.765 : en:Barb Wire's Revenge 01:23:56.990 : en:The Last Crusade 01:30:13.199 : en:Escape From Steel Harbor 01:33:02.326 : en:Closing Credits Скриншоты
Скачать Загрузка... WEB-DL Профессиональный (многоголосый, закадровый) + отдельно 782,37 Мб MPEG-4 AVC, 752x408, ~ 983 Кбит/с AAC-LC, 2 ch, ~ 76 Кбит/сMIОбщее Уникальный идентификатор : 235094021202805822134352703593027687308 (0xB0DD76260CAB655FBEEA364C9E83538C) Полное имя : D:MOVIESBarb Wire .1996.ExKinoRay.mkv Формат : Matroska Версия формата : Version 4 / Version 2 Размер файла : 746 Мбайт Продолжительность : 1 ч. 38 м. Общий поток : 1061 Кбит/сек Дата кодирования : UTC 2017-10-24 11:38:00 Программа кодирования : mkvmerge v15.0.0 ('Duel with the Devil') 64-bit Библиотека кодирования : libebml v1.3.5 + libmatroska v1.4.5 Видео Идентификатор : 1 Формат : AVC Формат/Информация : Advanced Video Codec Профиль формата : [email protected] Параметр CABAC формата : Да Параметр RefFrames формата : 10 кадров Идентификатор кодека : V_MPEG4/ISO/AVC Продолжительность : 1 ч. 38 м. Битрейт : 983 Кбит/сек Ширина : 752 пикселя Высота : 408 пикселей Соотношение сторон : 1,85:1 Режим частоты кадров : Постоянный Частота кадров : 23,976 (24000/1001) кадра/сек Цветовое пространство : YUV Субдискретизация насыщенности : 4:2:0 Битовая глубина : 8 бит Тип развёртки : Прогрессивная Бит/(Пиксели*Кадры) : 0.134 Размер потока : 691 Мбайт (93%) Библиотека кодирования : x264 core 152 r2851 ba24899 Настройки программы : cabac=1 / ref=10 / deblock=1:-2:-1 / analyse=0x3:0x133 / me=umh / subme=11 / psy=1 / psy_rd=1.00:0.05 / mixed_ref=1 / me_range=32 / chroma_me=1 / trellis=2 / 8x8dct=1 / cqm=0 / deadzone=21,11 / fast_pskip=0 / chroma_qp_offset=-3 / threads=6 / lookahead_threads=1 / sliced_threads=0 / nr=0 / decimate=0 / interlaced=0 / bluray_compat=0 / constrained_intra=0 / bframes=10 / b_pyramid=2 / b_adapt=2 / b_bias=0 / direct=3 / weightb=1 / open_gop=0 / weightp=2 / keyint=240 / keyint_min=23 / scenecut=40 / intra_refresh=0 / rc_lookahead=40 / rc=2pass / mbtree=0 / bitrate=983 / ratetol=1.0 / qcomp=0.60 / qpmin=0 / qpmax=69 / qpstep=4 / cplxblur=20.0 / qblur=0.5 / vbv_maxrate=50000 / vbv_bufsize=62500 / nal_hrd=none / filler=0 / ip_ratio=1.40 / pb_ratio=1.30 / aq=1:1.00 Default : Да Forced : Нет Аудио Идентификатор : 2 Формат : AAC Формат/Информация : Advanced Audio Codec Профиль формата : LC Идентификатор кодека : A_AAC Продолжительность : 1 ч. 38 м. Битрейт : 76,0 Кбит/сек Каналы : 2 канала Расположение каналов : Front: L R Частота : 48,0 КГц Частота кадров : 46,875 кадров/сек (1024 SPF) Метод сжатия : С потерями Задержка видео : 9 мс. Размер потока : 53,5 Мбайт (7%) Default : Да Forced : Нет Меню 00:00:00.000 : :Chapter 01 00:03:55.026 : :Chapter 02 00:08:11.699 : :Chapter 03 00:18:12.424 : :Chapter 04 00:27:56.758 : :Chapter 05 00:34:07.336 : :Chapter 06 00:44:15.944 : :Chapter 07 00:48:44.379 : :Chapter 08 00:53:31.666 : :Chapter 09 00:55:33.538 : :Chapter 10 01:04:49.844 : :Chapter 11 01:12:59.500 : :Chapter 12 01:19:29.765 : :Chapter 13 01:23:56.990 : :Chapter 14 01:30:13.199 : :Chapter 15 01:33:02.326 : :Chapter 16 01:38:20.269 : :Chapter 17 Скриншоты

У нас вы можете легко скачать Не называй меня малышкой через торрент бесплатно в хорошем качестве, оставляйте комментарии и делитесь впечатлениями!


А вот тут ещё интересные фильмы, которые вы может быть не смотрели:



Добавить комментарий

Ваше имя

Комментарий

Все рекомендуемые нами программы доступны на странице Скачать. На сайте Кино как То всегда все новые фильмы, доступные к скачиванию через торрент.

Киноторг Контакты:
Адрес: Гаражный пр. 13 105275 Москва,